Join Us on MoojMassti.com

Join Us on MoojMassti.com
 
HomeHome  PortalPortal  CalendarCalendar  FAQFAQ  RegisterRegister  Log in  
Similar topics
June 2017
MonTueWedThuFriSatSun
   1234
567891011
12131415161718
19202122232425
2627282930  
CalendarCalendar
Latest topics
» pepsi cricket revolutioon free online play
Wed May 23, 2012 7:11 pm by rubbani

» Viagra Generico. que es el viagra
Fri Jul 29, 2011 3:27 am by Guest

» Viagra Generico. viagra en farmacias
Fri Jul 29, 2011 3:13 am by Guest

» runescape bots
Wed Jul 27, 2011 6:46 pm by Guest

» Our New Domain Site Moojmassti.com
Sun Jun 05, 2011 3:49 pm by Dasmind

» Hidden 3D 2011
Sat May 21, 2011 6:28 pm by Dasmind

» Tigers of Islam:Muhammad Bin Qasim - Part 1/2 محمد بن قاسم‎
Fri May 20, 2011 4:41 pm by Dasmind

»  [FS] All Round Hunter PAL WII
Fri May 20, 2011 4:28 pm by Dasmind

» Battle vs Chess
Fri May 20, 2011 4:26 pm by Dasmind

Keywords
year online revolutioon revolution inter brotherhood assasin creed 2011 Crack maneger play Internet free Security assassins Norton download cricket patch pepsi

Share | 
 

 Cricket 2011 World Cup - Opening Ceremony

View previous topic View next topic Go down 
AuthorMessage
nauman

avatar

Posts : 251
Points : 785
Join date : 2011-01-24
Age : 26

PostSubject: Cricket 2011 World Cup - Opening Ceremony   Sun Feb 27, 2011 5:55 pm

cheers Cricket 2011 World Cup - Opening Ceremony cheers






Format : MPEG-4
Format profile : Base Media
Codec ID : isom
File size : 1.38 GiB
Duration : 2h 32mn
Overall bit rate : 1 298 Kbps
Encoded date : UTC 2011-02-16 23:39:53
Tagged date : UTC 2011-02-16 23:39:53

Video
ID : 1
Format : AVC
Format/Info : Advanced Video Codec
Format profile : High@L3.1
Format settings, CABAC : Yes
Format settings, ReFrames : 5 frames
Codec ID : avc1
Codec ID/Info : Advanced Video Coding
Duration : 2h 32mn
Bit rate mode : Variable
Bit rate : 1 211 Kbps
Maximum bit rate : 4 406 Kbps
Width : 720 pixels
Height : 400 pixels
Display aspect ratio : 16:9
Frame rate mode : Constant
Frame rate : 25.000 fps
Color space : YUV
Chroma subsampling : 4:2:0
Bit depth : 8 bits
Scan type : Progressive
Bits/(Pixel*Frame) : 0.168
Stream size : 1.29 GiB (93%)
Title : Encoded_By_VoNbArRoN
Writing library : x264 core 105 r1724 b02df7b
Encoding settings : cabac=1 / ref=5 / deblock=1:0:0 / analyse=0x3:0x113 / me=umh / subme=8 / psy=1 / psy_rd=1.00:0.00 / mixed_ref=1 / me_range=16 / chroma_me=1 / trellis=2 / 8x8dct=1 / cqm=0 / deadzone=21,11 / fast_pskip=1 / chroma_qp_offset=-2 / threads=12 / sliced_threads=0 / nr=0 / decimate=1 / interlaced=0 / constrained_intra=0 / bframes=3 / b_pyramid=2 / b_adapt=2 / b_bias=0 / direct=3 / weightb=1 / open_gop=0 / weightp=2 / keyint=250 / keyint_min=25 / scenecut=40 / intra_refresh=0 / rc_lookahead=50 / rc=2pass / mbtree=1 / bitrate=1211 / ratetol=1.0 / qcomp=0.60 / qpmin=10 / qpmax=51 / qpstep=4 / cplxblur=20.0 / qblur=0.5 / vbv_maxrate=20000 / vbv_bufsize=25000 / ip_ratio=1.40 / aq=1:1.00 / nal_hrd=none
Encoded date : UTC 2011-02-16 16:03:50
Tagged date : UTC 2011-02-16 23:40:54

Audio
ID : 2
Format : AAC
Format/Info : Advanced Audio Codec
Format profile : HE-AAC / LC
Codec ID : 40
Duration : 2h 32mn
Bit rate mode : Variable
Bit rate : 83.4 Kbps
Maximum bit rate : 102 Kbps
Channel(s) : 2 channels
Channel positions : Front: L R
Sampling rate : 48.0 KHz / 24.0 KHz
Compression mode : Lossy
Stream size : 90.3 MiB (6%)
Language : English
Encoded date : UTC 2011-02-16 16:03:56
Tagged date : UTC 2011-02-16 23:40:54











Cricket 2011 World Cup - Opening Ceremony (1.38 GB)
DOWNLOAD
Back to top Go down
 
Cricket 2011 World Cup - Opening Ceremony
View previous topic View next topic Back to top 
Page 1 of 1
 Similar topics
-
» olympics opening ceremony...
» Canberra Brick Expo 2011 - EOI Wanted!
» Dark World Drain (KCVDS)
» [completed]Tournament at Millennium Game World 10th Jan 2011
» Dallas Event in April 2011

Permissions in this forum:You cannot reply to topics in this forum
Join Us on MoojMassti.com :: Movies :: indian movies-
Jump to: