Join Us on MoojMassti.com

Join Us on MoojMassti.com
 
HomeHome  PortalPortal  CalendarCalendar  FAQFAQ  RegisterRegister  Log in  
Similar topics
December 2017
MonTueWedThuFriSatSun
    123
45678910
11121314151617
18192021222324
25262728293031
CalendarCalendar
Latest topics
» pepsi cricket revolutioon free online play
Wed May 23, 2012 7:11 pm by rubbani

» Viagra Generico. que es el viagra
Fri Jul 29, 2011 3:27 am by Guest

» Viagra Generico. viagra en farmacias
Fri Jul 29, 2011 3:13 am by Guest

» runescape bots
Wed Jul 27, 2011 6:46 pm by Guest

» Our New Domain Site Moojmassti.com
Sun Jun 05, 2011 3:49 pm by Dasmind

» Hidden 3D 2011
Sat May 21, 2011 6:28 pm by Dasmind

» Tigers of Islam:Muhammad Bin Qasim - Part 1/2 محمد بن قاسم‎
Fri May 20, 2011 4:41 pm by Dasmind

»  [FS] All Round Hunter PAL WII
Fri May 20, 2011 4:28 pm by Dasmind

» Battle vs Chess
Fri May 20, 2011 4:26 pm by Dasmind

Keywords

Share | 
 

 Push.2009.720p.BRRip

View previous topic View next topic Go down 
AuthorMessage
nauman

avatar

Posts : 251
Points : 785
Join date : 2011-01-24
Age : 26

PostSubject: Push.2009.720p.BRRip   Fri Mar 11, 2011 6:49 pm




Genre: Action | Sci-Fi | Thriller
Language:English
IMDb:http://www.imdb.com/title/tt0465580/
Source:BluRay.DTS.x264.HUBRIS
Subtitles:Romana


Format : MPEG-4
Format profile : Base Media
Codec ID : isom
File size : 2.37 GiB
Duration : 1h 51mn
Overall bit rate : 3 048 Kbps


Video
Format profile : High@L4.1
Format settings, CABAC : Yes
Format settings, ReFrames : 3 frames
Codec ID : avc1
Codec ID/Info : Advanced Video Coding
Duration : 1h 51mn
Bit rate mode : Variable
Bit rate : 2 651 Kbps
Maximum bit rate : 30.3 Mbps
Width : 1 280 pixels
Height : 544 pixels
Display aspect ratio : 2.35:1
Frame rate mode : Constant
Frame rate : 23.976 fps
Color space : YUV
Chroma subsampling : 4:2:0
Bit depth : 8 bits
Scan type : Progressive
Bits/(Pixel*Frame) : 0.159
Stream size : 2.02 GiB (85%)
Writing library : x264


Audio
ID : 2
Format : AAC
Format/Info : Advanced Audio Codec
Format version : Version 4
Format profile : LC
Format settings, SBR : No
Codec ID : 40
Duration : 1h 51mn
Bit rate mode : Variable
Bit rate : 444 Kbps
Maximum bit rate : 542 Kbps
Channel(s) : 6 channels
Channel positions : Front: L C R, Side: L R, LFE
Sampling rate : 48.0 KHz
Stream size : 354 MiB (15%)


Plot:
Two young Americans with special abilities must race to find a girl in Hong Kong before a shadowy government organization called Division does

[You must be registered and logged in to see this link.]











Push.2009.720p.BRRip.
2.38 GB
[You must be registered and logged in to see this link.]
Back to top Go down
 
Push.2009.720p.BRRip
View previous topic View next topic Back to top 
Page 1 of 1
 Similar topics
-
» Gerard Butler Covers ‘Esquire’ August 2009
» Pickering Steam Rally 2009
» You tube video of Old Warden road run 2009
» Welland Steam Rally 24th, 25th & 26th July 2009
» 30.10.2009

Permissions in this forum:You cannot reply to topics in this forum
Join Us on MoojMassti.com :: Movies :: latest english Movies-
Jump to: