Join Us on MoojMassti.com

Join Us on MoojMassti.com
 
HomeHome  PortalPortal  CalendarCalendar  FAQFAQ  RegisterRegister  Log in  
Similar topics
February 2017
MonTueWedThuFriSatSun
  12345
6789101112
13141516171819
20212223242526
2728     
CalendarCalendar
Latest topics
» pepsi cricket revolutioon free online play
Wed May 23, 2012 7:11 pm by rubbani

» Viagra Generico. que es el viagra
Fri Jul 29, 2011 3:27 am by Guest

» Viagra Generico. viagra en farmacias
Fri Jul 29, 2011 3:13 am by Guest

» runescape bots
Wed Jul 27, 2011 6:46 pm by Guest

» Our New Domain Site Moojmassti.com
Sun Jun 05, 2011 3:49 pm by Dasmind

» Hidden 3D 2011
Sat May 21, 2011 6:28 pm by Dasmind

» Tigers of Islam:Muhammad Bin Qasim - Part 1/2 محمد بن قاسم‎
Fri May 20, 2011 4:41 pm by Dasmind

»  [FS] All Round Hunter PAL WII
Fri May 20, 2011 4:28 pm by Dasmind

» Battle vs Chess
Fri May 20, 2011 4:26 pm by Dasmind

Keywords
revolutioon online assasin download creed Internet 2011 patch Norton brotherhood year assassins cricket inter revolution free pepsi Crack maneger play Security

Share | 
 

 TRON Legacy (2010) DVDRip

View previous topic View next topic Go down 
AuthorMessage
nauman



Posts : 251
Points : 785
Join date : 2011-01-24
Age : 26

PostSubject: TRON Legacy (2010) DVDRip   Tue Apr 19, 2011 12:20 pm




INFO

Code:
  TRON Legacy (2010) DVDRip XviD-MAX
Format                          : AVI
Format/Info                      : Audio Video Interleave
Format profile                  : OpenDML
File size                        : 1.48 GiB
Duration                        : 2h 5mn
Overall bit rate                : 1 695 Kbps
Writing application              : VirtualDubMod 1.5.10.2 (build 2542/release)
Writing library                  : VirtualDubMod build 2542/release
Original source form            : MAX TORRENTZ
Copyright                        : SIGISMUNT

Video
ID                              : 0
Format                          : MPEG-4 Visual
Format profile                  : AdvancedSimple@L5
Format settings, BVOP            : Yes
Format settings, QPel            : No
Format settings, GMC            : No warppoints
Format settings, Matrix          : Custom
Muxing mode                      : Packed bitstream
Codec ID                        : XVID
Codec ID/Hint                    : XviD
Duration                        : 2h 5mn
Bit rate                        : 1 499 Kbps
Width                            : 720 pixels
Height                          : 400 pixels
Display aspect ratio            : 16:9
Frame rate                      : 23.976 fps
Resolution                      : 24 bits
Colorimetry                      : 4:2:0
Scan type                        : Progressive
Bits/(Pixel*Frame)              : 0.217
Stream size                      : 1.31 GiB (88%)
Writing library                  : XviD 62

Audio
ID                              : 1
Format                          : MPEG Audio
Format version                  : Version 1
Format profile                  : Layer 3
Codec ID                        : 55
Codec ID/Hint                    : MP3
Duration                        : 2h 5mn
Bit rate mode                    : Constant
Bit rate                        : 192 Kbps
Channel(s)                      : 2 channels
Sampling rate                    : 48.0 KHz
Resolution                      : 16 bits
Stream size                      : 172 MiB (11%)
Alignment                        : Aligned on interleaves
Interleave, duration            : 534 ms (12.80 video frames)
 




SCREENS














DOWNLOAD
TORRENT



Dont Forget to Say Thanks!
Back to top Go down
 
TRON Legacy (2010) DVDRip
View previous topic View next topic Back to top 
Page 1 of 1
 Similar topics
-
» Wind Blast 2010 DVDRip XviD
» Tron Legacy PSD
» Rushden Cavalcade 2010
» Jamie Foxx Pre-Grammy Party - Jan 29, 2010
» Company Magazine UK 2010

Permissions in this forum:You cannot reply to topics in this forum
Join Us on MoojMassti.com :: Movies :: latest english Movies-
Jump to: