Join Us on MoojMassti.com

Join Us on MoojMassti.com
 
HomeHome  PortalPortal  CalendarCalendar  FAQFAQ  RegisterRegister  Log in  
Similar topics
December 2017
MonTueWedThuFriSatSun
    123
45678910
11121314151617
18192021222324
25262728293031
CalendarCalendar
Latest topics
» pepsi cricket revolutioon free online play
Wed May 23, 2012 7:11 pm by rubbani

» Viagra Generico. que es el viagra
Fri Jul 29, 2011 3:27 am by Guest

» Viagra Generico. viagra en farmacias
Fri Jul 29, 2011 3:13 am by Guest

» runescape bots
Wed Jul 27, 2011 6:46 pm by Guest

» Our New Domain Site Moojmassti.com
Sun Jun 05, 2011 3:49 pm by Dasmind

» Hidden 3D 2011
Sat May 21, 2011 6:28 pm by Dasmind

» Tigers of Islam:Muhammad Bin Qasim - Part 1/2 محمد بن قاسم‎
Fri May 20, 2011 4:41 pm by Dasmind

»  [FS] All Round Hunter PAL WII
Fri May 20, 2011 4:28 pm by Dasmind

» Battle vs Chess
Fri May 20, 2011 4:26 pm by Dasmind

Keywords

Share | 
 

 Unstoppable (2010) DVDRip

View previous topic View next topic Go down 
AuthorMessage
nauman

avatar

Posts : 251
Points : 785
Join date : 2011-01-24
Age : 26

PostSubject: Unstoppable (2010) DVDRip   Tue Apr 19, 2011 12:45 pm





INFO

Code:
  Format                          : AVI
Format/Info                      : Audio Video Interleave
Format profile                  : OpenDML
File size                        : 1.38 GiB
Duration                        : 1h 38mn
Overall bit rate                : 2 006 Kbps
Writing application              : VirtualDubMod 1.5.10.2 (build 2542/release)
Writing library                  : VirtualDubMod build 2542/release
Original source form            : MAX TORRENTZ
Copyright                        : SIGISMUNT


Video
ID                              : 0
Format                          : MPEG-4 Visual
Format profile                  : AdvancedSimple@L5
Format settings, BVOP            : Yes
Format settings, QPel            : No
Format settings, GMC            : No warppoints
Format settings, Matrix          : Default (H.263)
Codec ID                        : XVID
Codec ID/Hint                    : XviD
Duration                        : 1h 38mn
Bit rate                        : 1 552 Kbps
Width                            : 720 pixels
Height                          : 304 pixels
Display aspect ratio            : 2.35:1
Frame rate                      : 23.976 fps
Resolution                      : 24 bits
Colorimetry                      : 4:2:0
Scan type                        : Progressive
Bits/(Pixel*Frame)              : 0.296
Stream size                      : 1.07 GiB (77%)
Writing library                  : XviD 1.2.1 (UTC 2008-12-04)

Audio
ID                              : 1
Format                          : AC-3
Format/Info                      : Audio Coding 3
Codec ID                        : 2000
Duration                        : 1h 38mn
Bit rate mode                    : Constant
Bit rate                        : 448 Kbps
Channel(s)                      : 6 channels
Channel positions                : Front: L C R, Surround: L R, LFE
Sampling rate                    : 48.0 KHz
Stream size                      : 316 MiB (22%)
Alignment                        : Aligned on interleaves
Interleave, duration            : 64 ms (1.53 video frames)
Interleave, preload duration    : 192 ms
 
Source:1080P AVC DTS-HD MA5.1 (perfect a/v/sync quality-sample is included)




SCREENS












DOWNLOAD
[You must be registered and logged in to see this link.]



Dont Forget to Say Thanks!
Back to top Go down
 
Unstoppable (2010) DVDRip
View previous topic View next topic Back to top 
Page 1 of 1
 Similar topics
-
» Wind Blast 2010 DVDRip XviD
» Rushden Cavalcade 2010
» Jamie Foxx Pre-Grammy Party - Jan 29, 2010
» Company Magazine UK 2010
» Canberra Brick Expo 2010

Permissions in this forum:You cannot reply to topics in this forum
Join Us on MoojMassti.com :: Movies :: latest english Movies-
Jump to: