Join Us on MoojMassti.com

Join Us on MoojMassti.com
 
HomeHome  PortalPortal  CalendarCalendar  FAQFAQ  RegisterRegister  Log in  
Similar topics
May 2017
MonTueWedThuFriSatSun
1234567
891011121314
15161718192021
22232425262728
293031    
CalendarCalendar
Latest topics
» pepsi cricket revolutioon free online play
Wed May 23, 2012 7:11 pm by rubbani

» Viagra Generico. que es el viagra
Fri Jul 29, 2011 3:27 am by Guest

» Viagra Generico. viagra en farmacias
Fri Jul 29, 2011 3:13 am by Guest

» runescape bots
Wed Jul 27, 2011 6:46 pm by Guest

» Our New Domain Site Moojmassti.com
Sun Jun 05, 2011 3:49 pm by Dasmind

» Hidden 3D 2011
Sat May 21, 2011 6:28 pm by Dasmind

» Tigers of Islam:Muhammad Bin Qasim - Part 1/2 محمد بن قاسم‎
Fri May 20, 2011 4:41 pm by Dasmind

»  [FS] All Round Hunter PAL WII
Fri May 20, 2011 4:28 pm by Dasmind

» Battle vs Chess
Fri May 20, 2011 4:26 pm by Dasmind

Keywords
Security assassins inter creed maneger year free Internet patch cricket download revolutioon revolution brotherhood pepsi Norton 2011 Crack online assasin play

Share | 
 

 IRON MAN 2

View previous topic View next topic Go down 
AuthorMessage
nauman

avatar

Posts : 251
Points : 785
Join date : 2011-01-24
Age : 26

PostSubject: IRON MAN 2    Tue Apr 19, 2011 12:58 pm


INFO

Code:
  Iron Man 2 (2010) DVDRip XviD-MAX

Format                          : AVI
Format/Info                      : Audio Video Interleave
Format profile                  : OpenDML
File size                        : 1.35 GiB
Duration                        : 1h 59mn
Overall bit rate                : 1 611 Kbps
Writing application              : VirtualDubMod 1.5.10.2 (build 2542/release)
Writing library                  : VirtualDubMod build 2542/release
Original source form            : MAX TORRENTZ
Copyright                        : SIGISMUNT

Video
ID                              : 0
Format                          : MPEG-4 Visual
Format profile                  : AdvancedSimple@L5
Format settings, BVOP            : Yes
Format settings, QPel            : No
Format settings, GMC            : No warppoints
Format settings, Matrix          : Default (H.263)
Codec ID                        : XVID
Codec ID/Hint                    : XviD
Duration                        : 1h 59mn
Bit rate                        : 1 157 Kbps
Width                            : 704 pixels
Height                          : 304 pixels
Display aspect ratio            : 2.35:1
Frame rate                      : 25.000 fps
Resolution                      : 24 bits
Colorimetry                      : 4:2:0
Scan type                        : Progressive
Bits/(Pixel*Frame)              : 0.216
Stream size                      : 991 MiB (72%)
Writing library                  : XviD 1.3.0.dev55

Audio
ID                              : 1
Format                          : AC-3
Format/Info                      : Audio Coding 3
Codec ID                        : 2000
Duration                        : 1h 59mn
Bit rate mode                    : Constant
Bit rate                        : 448 Kbps
Channel(s)                      : 6 channels
Channel positions                : Front: L C R, Surround: L R, LFE
Sampling rate                    : 48.0 KHz
Stream size                      : 384 MiB (28%)
Alignment                        : Aligned on interleaves
Interleave, duration            : 64 ms (1.60 video frames)
Interleave, preload duration    : 192 ms
 
 




SCREENS



















DOWNLOAD
TORRENT



Dont Forget to Say Thanks!
Back to top Go down
 
IRON MAN 2
View previous topic View next topic Back to top 
Page 1 of 1
 Similar topics
-
» Iron vs Aluminum
» 'Iron Man 3' News Thread
» Foam wing iron on covering
» Cast iron pot
» Iron Core of Koa'ki Meiru

Permissions in this forum:You cannot reply to topics in this forum
Join Us on MoojMassti.com :: Movies :: latest english Movies-
Jump to: