Join Us on MoojMassti.com

Join Us on MoojMassti.com
 
HomeHome  PortalPortal  CalendarCalendar  FAQFAQ  RegisterRegister  Log in  
Similar topics
April 2017
MonTueWedThuFriSatSun
     12
3456789
10111213141516
17181920212223
24252627282930
CalendarCalendar
Latest topics
» pepsi cricket revolutioon free online play
Wed May 23, 2012 7:11 pm by rubbani

» Viagra Generico. que es el viagra
Fri Jul 29, 2011 3:27 am by Guest

» Viagra Generico. viagra en farmacias
Fri Jul 29, 2011 3:13 am by Guest

» runescape bots
Wed Jul 27, 2011 6:46 pm by Guest

» Our New Domain Site Moojmassti.com
Sun Jun 05, 2011 3:49 pm by Dasmind

» Hidden 3D 2011
Sat May 21, 2011 6:28 pm by Dasmind

» Tigers of Islam:Muhammad Bin Qasim - Part 1/2 محمد بن قاسم‎
Fri May 20, 2011 4:41 pm by Dasmind

»  [FS] All Round Hunter PAL WII
Fri May 20, 2011 4:28 pm by Dasmind

» Battle vs Chess
Fri May 20, 2011 4:26 pm by Dasmind

Keywords
brotherhood assassins online play Crack creed inter 2011 revolution Security cricket year revolutioon Internet patch pepsi assasin download free Norton maneger

Share | 
 

 The Hit List 2011 720p BRRip

View previous topic View next topic Go down 
AuthorMessage
warhead



Posts : 9
Points : 38
Join date : 2011-04-21

PostSubject: The Hit List 2011 720p BRRip   Thu Apr 21, 2011 7:10 pm






PLOT

Code:
 
A disgruntled man creates a hit list with a stranger during a drunken night out and must then race to try to save those he marked for extermination as the bodies begin to pile up and all fingers point to him.   

INFO


Code:
    Genre:Action | Thriller
Language:English
IMDb:http://www.imdb.com/title/tt1575694/
Source:BluRay.1080p.DTS.x264-CHD


Format : MPEG-4
Format profile : Base Media
Codec ID : isom
File size : 2.12 GiB
Duration : 1h 30mn
Overall bit rate : 3 363 Kbps


Video
Format profile : High@L4.1
Format settings, CABAC : Yes
Format settings, ReFrames : 3 frames
Codec ID : avc1
Codec ID/Info : Advanced Video Coding
Duration : 1h 30mn
Bit rate mode : Variable
Bit rate : 3 000 Kbps
Maximum bit rate : 20.2 Mbps
Width : 1 280 pixels
Height : 720 pixels
Display aspect ratio : 16:9
Frame rate mode : Constant
Frame rate : 23.976 fps
Color space : YUV
Chroma subsampling : 4:2:0
Bit depth : 8 bits
Scan type : Progressive
Bits/(Pixel*Frame) : 0.136
Stream size : 1.84 GiB (87%)
Writing library : x264


Audio
ID : 2
Format : AAC
Format/Info : Advanced Audio Codec
Format version : Version 4
Format profile : LC
Format settings, SBR : No
Codec ID : 40
Duration : 1h 30mn
Bit rate mode : Variable
Bit rate : 438 Kbps
Maximum bit rate : 527 Kbps
Channel(s) : 6 channels
Channel positions : Front: L C R, Side: L R, LFE
Sampling rate : 48.0 KHz
Stream size : 283 MiB (13%) 


SCREENS










DOWNLOAD
Torrent
Back to top Go down
tania_hussain



Posts : 2
Points : 3
Join date : 2011-02-28

PostSubject: Re: The Hit List 2011 720p BRRip   Fri Apr 22, 2011 12:48 am

Thanks ......
Back to top Go down
 
The Hit List 2011 720p BRRip
View previous topic View next topic Back to top 
Page 1 of 1
 Similar topics
-
» What video games are on your christmas list?
» Scrap Deck (help please!)
» Yu-Gi-Oh! Dawn of Xyz 2011 Starter Deck
» Yu-Gi-Oh! 5D's World Championship 2011: Over the Nexus
» Dallas Event in April 2011

Permissions in this forum:You cannot reply to topics in this forum
Join Us on MoojMassti.com :: Movies :: latest english Movies-
Jump to: