Join Us on MoojMassti.com

Join Us on MoojMassti.com
 
HomeHome  PortalPortal  CalendarCalendar  FAQFAQ  RegisterRegister  Log in  
Similar topics
September 2017
MonTueWedThuFriSatSun
    123
45678910
11121314151617
18192021222324
252627282930 
CalendarCalendar
Latest topics
» pepsi cricket revolutioon free online play
Wed May 23, 2012 7:11 pm by rubbani

» Viagra Generico. que es el viagra
Fri Jul 29, 2011 3:27 am by Guest

» Viagra Generico. viagra en farmacias
Fri Jul 29, 2011 3:13 am by Guest

» runescape bots
Wed Jul 27, 2011 6:46 pm by Guest

» Our New Domain Site Moojmassti.com
Sun Jun 05, 2011 3:49 pm by Dasmind

» Hidden 3D 2011
Sat May 21, 2011 6:28 pm by Dasmind

» Tigers of Islam:Muhammad Bin Qasim - Part 1/2 محمد بن قاسم‎
Fri May 20, 2011 4:41 pm by Dasmind

»  [FS] All Round Hunter PAL WII
Fri May 20, 2011 4:28 pm by Dasmind

» Battle vs Chess
Fri May 20, 2011 4:26 pm by Dasmind

Keywords

Share | 
 

  The Lincoln Lawyer TS (2011)

View previous topic View next topic Go down 
AuthorMessage
adil_hayat



Posts : 20
Points : 59
Join date : 2011-04-23

PostSubject: The Lincoln Lawyer TS (2011)    Sat Apr 23, 2011 2:56 pm


Ripper ...........: IMAGiNE IMDB Rating.......: 7.5/10
Video Codec.......: XVID Release Date......: 18/04/11
Audio Codec.......: MP3 Theatre Date......: 18/03/11
Audio Bitrate.....: 128 Runtime.......: 1h 45mn
Subtitles.........: NIL Language..........: ENGLISH
Resolution......: 720 x 304
Code: (Click Here to Select All)
IMDb URL..........: [You must be registered and logged in to see this link.]


DETAILS:

Video
ID : 0
Format : MPEG-4 Visual
Format profile : Advanced Simple@L5
Format settings, BVOP : 2
Format settings, QPel : No
Format settings, GMC : No warppoints
Format settings, Matrix : Default (MPEG)
Muxing mode : Packed bitstream
Codec ID : XVID
Codec ID/Hint : XviD
Duration : 1h 45mn
Bit rate : 1 726 Kbps
Width : 720 pixels
Height : 304 pixels
Display aspect ratio : 2.35:1
Frame rate : 25.000 fps
Color space : YUV
Chroma subsampling : 4:2:0
Bit depth : 8 bits
Scan type : Progressive
Compression mode : Lossy
Bits/(Pixel*Frame) : 0.315
Stream size : 1.28 GiB (93%)
Writing library : XviD 61

Audio
ID : 1
Format : MPEG Audio
Format version : Version 1
Format profile : Layer 3
Mode : Joint stereo
Mode extension : MS Stereo
Codec ID : 55
Codec ID/Hint : MP3
Duration : 1h 45mn
Bit rate mode : Constant
[You must be registered and logged in to see this link.]
Bit rate : 128 Kbps
Channel(s) : 2 channels
Sampling rate : 44.1 KHz
Compression mode : Lossy
Stream size : 97.0 MiB (7%)
Alignment : Split accross interleaves
Interleave, duration : 40 ms (1.00 video frame)


Interleave, preload duration : 500 ms


DOWNLOAD :
Code:
[You must be registered and logged in to see this link.]
Back to top Go down
 
The Lincoln Lawyer TS (2011)
View previous topic View next topic Back to top 
Page 1 of 1
 Similar topics
-
» Dallas Event in April 2011
» Mai-Multiverse Calendar Contest 2011 on deviantART
» February 2011 Fleamarket & Charity Shop finds
» Oscar 2011 Party Field Guide
» Doctor Who Comic Relief 2011 sketch confirmed

Permissions in this forum:You cannot reply to topics in this forum
Join Us on MoojMassti.com :: Movies :: latest english Movies-
Jump to: