Join Us on MoojMassti.com

Join Us on MoojMassti.com
 
HomeHome  PortalPortal  CalendarCalendar  FAQFAQ  RegisterRegister  Log in  
Similar topics
August 2017
MonTueWedThuFriSatSun
 123456
78910111213
14151617181920
21222324252627
28293031   
CalendarCalendar
Latest topics
» pepsi cricket revolutioon free online play
Wed May 23, 2012 7:11 pm by rubbani

» Viagra Generico. que es el viagra
Fri Jul 29, 2011 3:27 am by Guest

» Viagra Generico. viagra en farmacias
Fri Jul 29, 2011 3:13 am by Guest

» runescape bots
Wed Jul 27, 2011 6:46 pm by Guest

» Our New Domain Site Moojmassti.com
Sun Jun 05, 2011 3:49 pm by Dasmind

» Hidden 3D 2011
Sat May 21, 2011 6:28 pm by Dasmind

» Tigers of Islam:Muhammad Bin Qasim - Part 1/2 محمد بن قاسم‎
Fri May 20, 2011 4:41 pm by Dasmind

»  [FS] All Round Hunter PAL WII
Fri May 20, 2011 4:28 pm by Dasmind

» Battle vs Chess
Fri May 20, 2011 4:26 pm by Dasmind

Keywords

Share | 
 

  The Eagle 2011 PPVRIP XviD

View previous topic View next topic Go down 
AuthorMessage
Dasmind
Admin
avatar

Posts : 219
Points : 611
Join date : 2011-01-17
Age : 30
Location : Punjab

PostSubject: The Eagle 2011 PPVRIP XviD    Tue Apr 26, 2011 7:08 pm


Quote :

The.Eagle.2011.PPVRIP.XviD.IFLIX

Format : AVI
Format/Info : Audio Video Interleave
Format profile : OpenDML
File size : 1.34 GiB
Duration : 1h 53mn
Overall bit rate : 1 695 Kbps

Video
ID : 0
Format : MPEG-4 Visual
Format profile : Simple@L3
Format settings, BVOP : No
Format settings, QPel : No
Format settings, GMC : No warppoints
Format settings, Matrix : Default (H.263)
Codec ID : XVID
Codec ID/Hint : XviD
Duration : 1h 53mn
Bit rate : 1 549 Kbps
Width : 720 pixels
Height : 480 pixels
Display aspect ratio : 1.500
Frame rate : 29.970 fps
Original frame rate : 29.000 fps
Standard : NTSC
Resolution : 24 bits
Colorimetry : 4:2:0
Scan type : Progressive
Bits/(Pixel*Frame) : 0.150
Stream size : 1.23 GiB (91%)
Writing library : XviD 1.2.1 (UTC 2008-12-04)

Audio
ID : 1
Format : MPEG Audio
Format version : Version 1
Format profile : Layer 3
Format_Settings_Mode : Joint stereo / MS Stereo
Codec ID : 55
Codec ID/Hint : MP3
Duration : 1h 53mn
Bit rate mode : Constant
Bit rate : 128 Kbps
Channel(s) : 2 channels
Sampling rate : 44.1 KHz
Resolution : 16 bits
Stream size : 104 MiB (8%)
Alignment : Aligned on interleaves
Interleave, duration : 26 ms (0.78 video frame)
Writing library : LAME3.98.2





DOWNLOAD

Quote :

[You must be registered and logged in to see this link.]
Back to top Go down
http://pakfun.forums.net.bz
 
The Eagle 2011 PPVRIP XviD
View previous topic View next topic Back to top 
Page 1 of 1
 Similar topics
-
» All Star Superman 2011 DVDRip XviD-VoMiT
» Millers Collectables 2010-2011 By Judith Miller & Mark Hill
» Brickvention 2011
» SeiFeR's Wood Elves (2011-05-12 Still for sale)
» CAA Pre Oscar Party Friday, Feb. 25, 2011

Permissions in this forum:You cannot reply to topics in this forum
Join Us on MoojMassti.com :: Movies :: latest english Movies-
Jump to: